[Login] or [Signup]
Login
Username:
Password:
[Signup]
[Recover Account]


Poll


You must be logged in to view polls



Torrent Details For "Thugs of Hindostan (2018) Hindi New HQ PreDVDRip x264 MP3 - 700MB [MovCr]"

Thugs of Hindostan (2018) Hindi New HQ PreDVDRip x264 MP3 - 700MB [MovCr]

Download this torrent | Magnet Download
Health:
Seeds: 239
Leechers: 1,333
Completed: 214 
Last Checked: 08-11-2018 11:32:28
External Torrent
Update Stats
Download Magnet


Poster


iMDB
Title: Thugs of Hindostan
Year: 2018
Runtime: 164 minutes
Votes: 381
Rating: 5.3/10
Language: Hindi, Tamil, Telugu
Director: Vijay Krishna Acharya
Writing By: Vijay Krishna Acharya,
Produced By: Winston Azzopardi,Aditya Chopra,Kulthep Narula,Bharat Rawail,Sanjay Shivalkar,Aashish Singh,Gurpreet Singh,
Music: John Stewart Eduri
Cast:
Amitabh Bachchan as Khudabaksh
Aamir Khan as Firangi
Katrina Kaif as Suraiyya
Fatima Sana Shaikh as Zafira
Lloyd Owen as John Clive
Ronit Roy as
Abdul Quadir Amin as Azhar Ali
Jean-Charles Andrieux as Sam
Saaquib Ayubi as Rebel
Mohammed Zeeshan Ayyub as
Trailers:
Thugs of Hindostan Trailer


Watch-Free-HD     Download

Details
Name:Thugs of Hindostan (2018) Hindi New HQ PreDVDRip x264 MP3 - 700MB [MovCr]
Description:
Our Site   www.movcr.cc


Thugs of Hindostan (2018) Hindi New HQ PreDVDRip x264 MP3 - 700MB [MovCr]



 http://www.imdb.com/title/tt5970844/

 


General
Unique ID                                : 10992963999180896298194575525780197820 (0x8452AF880D7D5A99844A1663E8511BC)
Complete name                            : www.MovCr.cc - Thugs of Hindostan (2018) Hindi New HQ PreDVDRip x264 MP3 - 700MB [MovCr].mkv
Format                                   : Matroska
Format version                           : Version 4 / Version 2
File size                                : 721 MiB
Duration                                 : 2 h 30 min
Overall bit rate                         : 669 kb/s
Movie name                               : www.MovCr.cc
Encoded date                             : UTC 2018-11-08 10:37:45 / UTC 2018-11-08T09:45:29Z
Writing application                      : mkvmerge v26.0.0 ('In The Game') 64-bit
Writing library                          : libebml v1.3.6 + libmatroska v1.4.9 / Lavf57.7.2

Video
ID                                       : 1
Format                                   : AVC
Format/Info                              : Advanced Video Codec
Format profile                           : [email protected]
Format settings                          : CABAC / 4 Ref Frames
Format settings, CABAC                   : Yes
Format settings, RefFrames               : 4 frames
Codec ID                                 : V_MPEG4/ISO/AVC
Duration                                 : 2 h 30 min
Bit rate                                 : 586 kb/s
Width                                    : 720 pixels
Height                                   : 306 pixels
Display aspect ratio                     : 2.35:1
Frame rate mode                          : Constant
Frame rate                               : 23.976 (24000/1001) FPS
Color space                              : YUV
Chroma subsampling                       : 4:2:0
Bit depth                                : 8 bits
Scan type                                : Progressive
Bits/(Pixel*Frame)                       : 0.111
Stream size                              : 621 MiB (86%)
Title                                    : www.MovCr.cc
Writing library                          : x264 core 155 r2901 7d0ff22
Encoding settings                        : cabac=1 / ref=2 / deblock=1:0:0 / analyse=0x3:0x113 / me=hex / subme=6 / psy=1 / psy_rd=1.00:0.00 / mixed_ref=1 / me_range=16 / chroma_me=1 / trellis=1 / 8x8dct=1 / cqm=0 / deadzone=21,11 / fast_pskip=1 / chroma_qp_offset=-2 / threads=10 / lookahead_threads=1 / sliced_threads=0 / nr=0 / decimate=1 / interlaced=0 / bluray_compat=0 / constrained_intra=0 / bframes=3 / b_pyramid=2 / b_adapt=1 / b_bias=0 / direct=1 / weightb=1 / open_gop=0 / weightp=1 / keyint=240 / keyint_min=24 / scenecut=40 / intra_refresh=0 / rc_lookahead=30 / rc=abr / mbtree=1 / bitrate=586 / ratetol=1.0 / qcomp=0.60 / qpmin=0 / qpmax=69 / qpstep=4 / ip_ratio=1.40 / aq=1:1.00
Default                                  : Yes
Forced                                   : No
Color range                              : Limited
Color primaries                          : BT.709
Transfer characteristics                 : BT.709
Matrix coefficients                      : BT.709
Statistics Tags Issue                    : mkvmerge v26.0.0 ('In The Game') 64-bit 2018-11-08 10:37:45 / mkvmerge v26.0.0 ('In The Game') 64-bit 2018-11-08 10:37:45 / UTC 2018-11-08T09:45:29Z
FromStats_BitRate                        : 587059
FromStats_Duration                       : 02:30:44.077000000
FromStats_FrameCount                     : 216841
FromStats_StreamSize                     : 663676295

Audio
ID                                       : 2
Format                                   : MPEG Audio
Format version                           : Version 1
Format profile                           : Layer 3
Format settings                          : Joint stereo / MS Stereo
Codec ID                                 : A_MPEG/L3
Codec ID/Hint                            : MP3
Duration                                 : 2 h 30 min
Bit rate mode                            : Constant
Bit rate                                 : 80.0 kb/s
Channel(s)                               : 2 channels
Sampling rate                            : 44.1 kHz
Compression mode                         : Lossy
Stream size                              : 86.3 MiB (12%)
Title                                    : www.MovCr.cc
Language                                 : Hindi
Default                                  : Yes
Forced                                   : No
Statistics Tags Issue                    : mkvmerge v26.0.0 ('In The Game') 64-bit 2018-11-08 10:37:45 / mkvmerge v26.0.0 ('In The Game') 64-bit 2018-11-08 10:37:45 / UTC 2018-11-08T09:45:29Z
FromStats_BitRate                        : 80000
FromStats_Duration                       : 02:30:43.983000000
FromStats_FrameCount                     : 346215
FromStats_StreamSize                     : 90439837



 
 
 
 
 
 
 
Category:Movies > Bollywood
Lang:Hindi
Total Size:721.38 MB
Info Hash:10bde5fe6c0055c4014c07fd3588bf4372acdb5d
Added By:MAZE
Date Added:08-11-2018 10:44:16
Views:923
Hits:94

Download Torrent

Ratings:Not Yet Rated (Log in to rate it)


Tracker:
udp://tracker.coppersurfer.tk:6969/announce


File List: 


Comments

No comments still posted

Powered by 10 Hamsters v2-svn -|- Page Generated In 1.275559 secs.
-|- RSS FEED
Theme By: Nikkbu